Kamis, 31 Mei 2012

Safe (2012) RC BDRip XviD AC3 5-1 HQ Hive-CM8

Safe (2012) RC BDRip XviD AC3 5-1 HQ Hive-CM8

Safe (2012) RC BDRip XviD AC3 5-1 HQ Hive-CM8 | 1.43 GB
Thx Hive

CM8 Doing It Right The First Time


Video: Russian Bluray
Audio: Unknowns Line + Russian 5.1 Channels
Subs: from Majestics file


the line audio that made the rounds which sounds slightly like a mic too, was originally from unknown.
but nobody thanked them so far, which is sad. doing it here now, thx
this audio got cleaned and butchered and mixed with russian audio badly buy a lot of groups till now.
What came out is a lot worse than the original was to begin with, which i liked a lot.
if its really a line is hard to say, a lot indicates that it is, if its a mic its a damned good one :=)
i took the original audio and synced it lipsync to the russian bluray.
i would say its 99,99% lipsync, was a loads of hours work. its perfect and in sync now.
at the 1m40sec mark there is a short static noise for 10 secs or so,which i tried to remove as much as possible

I cleaned the russian 5.1 track from loads of voices, and entered the synced audio back into the russian track.
came out very nice

the subs came from the majestics srt file which i hardcoded with the video after retiming it for the bluray which had a different framerate.
this subs like all other version around are ONLY for the chinese spoken parts and not for the couple russian lines
nobody translated them so far, and i dont speak russian, so it is like it is. dont see a problem with that.

this will do till retail

Video: 720x304 @bitrate 1700 2pass
Audio: English AC3 5.1 @448
Sample: yes included
Subs: yes hardcoded for chinese parts only


Complete name : Safe.2012.RC.BDRip.XviD.AC3.5-1.HQ.Hive-CM8.avi
Format : AVI
Format/Info : Audio Video Interleave
File size : 1.42 GiB
Duration : 1h 34mn
Overall bit rate : 2 156 Kbps
Writing application : Nandub v1.0rc2
Writing library : Nandub build 1853/release

ID : 0
Format : MPEG-4 Visual
Format profile : Advanced Simple@L5
Format settings, BVOP : 2
Format settings, QPel : Yes
Format settings, GMC : No warppoints
Format settings, Matrix : Default (H.263)
Muxing mode : Packed bitstream
Codec ID : XVID
Codec ID/Hint : XviD
Duration : 1h 34mn
Bit rate : 1 699 Kbps
Width : 720 pixels
Height : 304 pixels
Display aspect ratio : 2.35:1
Frame rate : 24.000 fps
Color space : YUV
Chroma subsampling : 4:2:0
Bit depth : 8 bits
Scan type : Progressive
Compression mode : Lossy
Bits/(Pixel*Frame) : 0.323
Stream size : 1.12 GiB (79%)
Writing library : XviD 1.2.1 (UTC 2008-12-04)

ID : 1
Format : AC-3
Format/Info : Audio Coding 3
Mode extension : CM (complete main)
Codec ID : 2000
Duration : 1h 34mn
Bit rate mode : Constant
Bit rate : 448 Kbps
Channel(s) : 6 channels
Channel positions : Front: L C R, Side: L R, LFE
Sampling rate : 48.0 KHz
Bit depth : 16 bits
Compression mode : Lossy
Delay relative to video : 32ms
Stream size : 302 MiB (21%)
Alignment : Split accross interleaves
Interleave, duration : 42 ms (1.00 video frame)
Interleave, preload duration : 500 ms


Mei, a young girl whose memory holds a priceless numerical code, finds herself pursued by the Triads, the Russian mob, and corrupt NYC cops. Coming to her aid is an ex-cage fighter whose life was destroyed by the gangsters on Mei's trail.


Jason Statham ... Luke Wright
Catherine Chan ... Mei
Robert John Burke ... Captain Wolf
James Hong ... Han Jiao

1 komentar:

  1. Hi my family member! I wish to say that this article is amazing, nice written
    and come with almost all significant infos. I would like
    to look more posts like this .
    my webpage: computer repair in NYC


Makasih yang udah mampir,,Komen dong masih kosong nih...

SEO Tools by MessageForce